House of Cards 2013 S04E05 720p WEBRip X264-DEFLATE[rartv]

seeders: 49
leechers: 13
updated:
Added by z0n3212.58M in TV
Torrent verified. Downloaded 91,760 times.

DownloadFast Safe Anonymous
movies, software, shows...
  • View all House of Cards episodes
  • Episode title: Chapter 52
  • Episode: S04E13
  • Air date: 04 March 2016
  • IMDb link: 1856010
  • TVmaze link: House of Cards
  • Original run: 01 February 2013 — Present
  • Summary:

    A Congressman works with his equally conniving wife to exact revenge on the people who betrayed him.

    Written by Eppo77.2K
House of Cards 2013 S04E05 720p WEBRip X264-DEFLATE[rartv] (Size: 856.05 MB)
  House.of.Cards.2013.S04E05.720p.WEBRip.X264-DEFLATE.mkv 843.28 MB
  rarbg.com.txt 34 bytes
  House.of.Cards.2013.S04E05.720p.WEBRip.X264-DEFLATE.nfo 566 bytes
  Sample

Description


http://rarbg.to
House.of.Cards.2013.S04E05.720p.WEBRip.X264-DEFLATE[rartv]

image
Screens :

image
Mediainfo :

Video
ID : 1
Format : AVC
Format/Info : Advanced Video Codec
Format profile : [email protected]
Format settings, CABAC : Yes
Format settings, ReFrames : 8 frames
Codec ID : V_MPEG4/ISO/AVC
Duration : 47mn 24s
Bit rate : 1 797 Kbps
Width : 1 280 pixels
Height : 640 pixels
Display aspect ratio : 2.000
Frame rate mode : Constant
Frame rate : 23.976 (24000/1001) fps
Color space : YUV
Chroma subsampling : 4:2:0
Bit depth : 8 bits
Scan type : Progressive
Bits/(Pixel*Frame) : 0.092
Stream size : 609 MiB (72%)
Title : X264-720
Writing library : x264 core 148 r2665 a01e339
Encoding settings : cabac=1 / ref=8 / deblock=1:-3:-3 / analyse=0x3:0x133 / me=umh / subme=10 / psy=1 / psy_rd=1.05:0.00 / mixed_ref=1 / me_range=36 / chroma_me=1 / trellis=2 / 8x8dct=1 / cqm=0 / deadzone=6,6 / fast_pskip=0 / chroma_qp_offset=-2 / threads=12 / lookahead_threads=2 / sliced_threads=0 / nr=0 / decimate=0 / interlaced=0 / bluray_compat=0 / constrained_intra=0 / bframes=9 / b_pyramid=2 / b_adapt=2 / b_bias=0 / direct=3 / weightb=1 / open_gop=0 / weightp=2 / keyint=250 / keyint_min=23 / scenecut=40 / intra_refresh=0 / rc=crf / mbtree=0 / crf=18.0 / qcomp=0.80 / qpmin=0 / qpmax=69 / qpstep=4 / ip_ratio=1.10 / pb_ratio=1.10 / aq=3:0.60
Language : English
Default : Yes
Forced : No

Audio
ID : 2
Format : AC-3
Format/Info : Audio Coding 3
Mode extension : CM (complete main)
Format settings, Endianness : Big
Codec ID : A_AC3
Duration : 47mn 24s
Bit rate mode : Constant
Bit rate : 640 Kbps
Channel(s) : 6 channels
Channel positions : Front: L C R, Side: L R, LFE
Sampling rate : 48.0 KHz
Frame rate : 31.250 fps (1536 spf)
Compression mode : Lossy
Stream size : 217 MiB (26%)
Title : AC3 5.1
Language : English
Default : Yes
Forced : No

Text #1
ID : 3
Format : UTF-8
Codec ID : S_TEXT/UTF8
Codec ID/Info : UTF-8 Plain Text
Title : English
Language : English
Default : No
Forced : No

Text #2
ID : 4
Format : UTF-8
Codec ID : S_TEXT/UTF8
Codec ID/Info : UTF-8 Plain Text
Title : English (SDH)
Language : English
Default : No
Forced : No

Text #3
ID : 5
Format : UTF-8
Codec ID : S_TEXT/UTF8
Codec ID/Info : UTF-8 Plain Text
Title : Dutch
Language : Dutch
Default : No
Forced : No

Text #4
ID : 6
Format : UTF-8
Codec ID : S_TEXT/UTF8
Codec ID/Info : UTF-8 Plain Text
Title : French
Language : French
Default : No
Forced : No

Text #5
ID : 7
Format : UTF-8
Codec ID : S_TEXT/UTF8
Codec ID/Info : UTF-8 Plain Text
Title : Italian
Language : Italian
Default : No
Forced : No

Text #6
ID : 8
Format : UTF-8
Codec ID : S_TEXT/UTF8
Codec ID/Info : UTF-8 Plain Text
Title : Portuguese
Language : Portuguese
Default : No
Forced : No

Related Torrents

torrent name size files age seed leech

Sharing Widget


Download torrent
856.05 MB
seeders:52
leechers:9
House of Cards 2013 S04E05 720p WEBRip X264-DEFLATE[rartv]



To share this torrent use the code below and insert it into comments, status messages, forum posts or your signature.

Torrent: House of Cards 2013 S04E05 720p WEBRip X264-DEFLATE[rartv]

Trackers

tracker name
udp://tracker.openbittorrent.com:80/announce
udp://tracker.publicbt.com:80/announce
udp://tracker.coppersurfer.tk:6969/announce
udp://9.rarbg.me:2710/announce
udp://glotorrents.pw:6969/announce
http://tracker.trackerfix.com/announce
udp://9.rarbg.to:2710/announce
udp://tracker.opentrackr.org:1337/announce
µTorrent compatible trackers list

Locations

name
KickassTorrents
Torrent hash: 63AE9C2355A43F3D723355F31872A94CAF46B5CA

Top Comments

14
PatrikBateman1054
Oh man, all this pissing and moaning on every episode uploaded... ''I can't find the next episode'', ''Why don't they upload them all together?'', ''Oh, they are watching them first, and then they upload them''. Well, guess what! They have paid to watch them and you are just a freeloader. Besides that, you've been waiting for months for the new season to begin and now you can't wait for a few days hours?

Grow up!!

Last edited by PatrikBateman, 4 months ago

All Comments

audio
9/10
video
9/10
please, leave only comments related to that torrent
Sign In

audio: 9video: 9
Thank you.
audio: 9video: 9
very good copy, thanks
audio: 9video: 9
Great torrent, thank you Uploader!
audio: 10video: 10
thanks!
nice. keep up the good work
audio: 9video: 9
Thank you z0n321 for another excellent upload. Very much appreciated. Ran using VLC for PC without issue.
audio: 9video: 9
Thx cabeza!
audio: 8video: 8
Thank you rartv!
Show More All

User Opinions

alotofthings10.08K, hil20093470, tuia904, niagara69717, albertoU676, Senval665, Ekuz388, hummad324, punany159, mskaratepe159 ... And 488 more
FullPeluche52, aderion8
Report a bug Open chat